Published by Serpent's Tail, London. >> You can obtain exclusive access by registering now. Ashcroft, Richard. 5 All I've Got To Do The Beatles Symphonic Orchestra 2:09. Hits) [FLAC] - Kitlope torrent or any other torrent from the Audio FLAC. 4 GB The Beatles - 2019 - Abbey Road (Super Deluxe Edition) (3CD) [FLAC] (miok) 793 MB Various Artists - The Many Faces of The Beatles (2016) [Box 3CD][Flac] 582 MB. 06 - I Am The Walrus. Año: 2011 Formato/Bitrate: – ~ Tamaño: 103. Thanks for your efforts mate, I've been using your softwares for years and have recommended them to many. Beatles-LastChristmas. wav" WAVE TRACK 02 AUDIO TITLE "Something" PERFORMER "Beatles, The. Simple Plan - Shut U. 59 Gb Album List: 01. Shazam! 2019 BluRay 1080p x264. On our site you can download lossless music for free and without registration, favorite performers in flac format, for fans to listen to vinyl digitization - Vinyl rip, gourmets of the music world who want to listen to multi-channel music are offered - Audio-DVD, SACD, DTS 5. mid: 27-Jul-2015. Catalog #: 602537614127 Style: Rock Year: 2014 Format: FLAC (image +. In general, I'd be on your side about much of high res audio claims but FLAC and CD are better than compressed mp3 files or itunes stuff. Die Box enthält die zwölf Alben, die zwischen 1963 und 1970 veröffentlicht wurden, sowie Magical Mystery Tour und die beiden Past-Masters-Alben Vol. 08 KB: To save right click on the cover below and choose Save Picture As DOWNLOAD COVERS. There are a few that use wav files. 通常のFLACファイル (. 21 > FLAC 01 It's All Over Now 02 Miss Judy's Farm 03 Memphis, Tennessee 04 Maggie May 05 Stay With Me 06 Angel 07 Too Bad 08 I'd Rather Go Blind. wav Peak level 82. Listen to Bruce Springsteen Collection 1973 - 2012 Flac Torrent and 187 more episodes by Facegen Modeller 3. …It is unencumbered by patents and has open-source implementation. Скачать торрент (Classic Rock) The Beatles - Live At The Hollywood Bowl (2016) [FLAC (Image+. Here at Allflac. The Beatles -09- Everybody's Got Something To Hide Except Me And My Monkey. Pepper’s Lonely Hearts Club Band” perched in the top spot, you weren’t having a flashback to 1967. The Beatles release entire remastered catalog on limited edition USB stick (FLAC and MP3) and the 16GB USB's audio and visual contents will be provided in FLAC 44. If you have any questions about this content, please contact the administrators of this directory, who made it publicly available. The Beatles 1962-1966 Disc 2/10 Girl. Bruce Springsteen (Steel Mill) The Upstage Asbury Park, NJ January 22, 1971 (Previously Un-circulated) (The penultimate Steel Mill show) Transfer: Cassette Master > Reel > CDR > EAC Rip >. 00b: October 6 2013 at 12:05: The Final Countdown. The Beatles / Platinum Volume II Жанр: Classic Rock, Pop Rock Тип издания: CD , Compilation, Unofficial Release Издатель (лейбл): Not On Label (The Beatles) Каталожный номер: CDP 580317-2 Аудиокодек: FLAC (*. Hi guys , I just downloaded every album from The Beatles in. The Beatles - Please Please Me (1963/2009) FLAC (tracks) 24 bit/44,1 kHz | Time - 32:28 minutes | 429 MB. Older stuff like Beatles and Rolling Stones were recorded on old, low-fidelity equipment, and often in mono. FLAC (lossles) Format, Strona 11 - muzyka bezstratna. 00b: October 6 2013 at 12:05: The Final Countdown. 1 was mastered incorrectly in it's first run and the stereo and cues were wrong. …It is unencumbered by patents and has open-source implementation. 108226 rapidshare index of mp3 because links available for free instant download. Bootlegs: Performer First: Performer Last: Title: Date: Venue: City: State / Country: Tracker: Track # Torrent Date: Pkg: Type: Standard: Date @ Beach Boys: Smile. Over the years, the collection has also been released on cassette, 8-track, compact disc (CD), on a USB flash drive in MP3 and 24-bit FLAC format, and on digital media streaming services. 98: Viewing 1 - 20 of 125 Products. needle-drop FLAC. List to Beatles bootleg downloads (updated) Bootleg Network. Artist: Michael W. 1 % Track quality 100. Artist: VA Title Of Album: Jazz and Beatles Release Date: 2010 Location: Argentina Label: Music Brokers (MBB 9932) Genre: Jazz Quality: FLAC | lossless (image+. flac: 2020-05-04: Klaus Badelt - He's a Pirate. 0 (24/96) capture > IZotope RX + Ozone 5 > iZotope RX MBIT+ resample 16/44. 2 © 2003-04 Kai Blankenhorn valid XHTML 1. The set was issued on 9 September 2009, along with the remastered mono recordings and companion The Beatles in Mono and The Beatles: Rock Band video game. Password stores only the client itself! Encryption, recommended for military. The set was released on 9 September 2009, the same day both The Beatles: Rock Band and the remastered mono recordings were released (see The Beatles in Mono). The Beatles smrdia a boli anglická rokenrolová skupina, ktorá vznikla v roku 1960 v Liverpoole. flac files, but iTunes does not let you sync these to your iPod/iPhone. PDP-CH - London Symphony Orchestra - Landon Ronald - Pau Casals, Cello - Cello Concerto in B-flat major, G482 - Luigi Boccherini - Hmv-db3056-2ea4156. VA Songs of The Beatles: Reggae Style 2016 FLAC | 40 Canciones | 677 MB Hermosa coleccion de 40 Covers de The Beatles, en ritmo reggae, para disfrutar. Albums: Second Album; The Beatles - The Beatles Bootleg Recordings 1963 (2013) The Beatles - Help! Studio Sessions: Back To Basics; The Beatles - The Beatles Bootleg Recordings 1963; The Beatles-On Air - Live at the BBC, Vol. - We do not take requests. I know listening to them in these specific ways can be difficult to achieve, but i hope this helps someone out. 83 GB (16/44) | 3% RAR Recovery Label: Mobile Fidelity Sound Lab | USA | Cat#: BC-1 | Genre: Classic. The Beatles - The Best IV (1968 – 1970) (1989) Formátum: FLAC | Bitráta: 761 kbps Műfaj: Rock | Méret: 373MB | Hossz: 01:08:17 perc Tracklist: 01. Index - Identidade (2005) EAC Rip FLAC (image+. Topic Title Topic Starter Replies Views Last Action; 1981-00-00 Leathur Demos flac: the accountant: 13: 52: 26th December 2019 - 03:43 PM Last Post by: Wolf: 1982-02-14 Los Angeles, Ca. FLAC is an open-source file format which offers true-CD quality rips at half the size. Paul - Down To The Wire (1990). 'Celebration: The Fans' Tale' was made for Granada in 1993, to commemorate thirty years since they last played the venue. 98: Viewing 1 - 20 of 125 Products. ) September 1st (2009) After B. The Beatles have an agreement with EMI to pump out 30,000 apple-shaped USB drives loaded with the band's music in FLAC 44. Complete collection of albums of famous music groups. See The Beatles Boxsets (latest boxsets at the bottom of the page) (In case you're interested: I bought the Mono boxset + White Album, Abbey Road & Let It Be stereo versions. 87 MB: 29: 2 Days ago: 1: 0 [indie-folk, indie-rock] (2020. Leave My Kitten Alone Take 5 recorded on August 14. 7z 2019-01-01 11:17 34M 7-Zip Archive CHUCHEL (2018-03-07)(Amanita Design)[PC]. wav) > iZotope RX and Ozone (16/44) > Peak Pro XT (edit / index) > xACT 2. FLAC stands for Free Lossless Audio Codec, an audio format similar to MP3, but lossless, meaning that audio is compressed in FLAC without any loss in quality. 1KHz 24bit—higher than 16-bit CD quality—and 320Kbps MP3 files. cue,log,scans). MSO 07 CRK. In general, I'd be on your side about much of high res audio claims but FLAC and CD are better than compressed mp3 files or itunes stuff. Artist: Michael W. I do like the fact that. Although it concentrates on the best bootlegs I have downloaded in the last five years, the same sites and addresses used are where the bootlegs in the 100 greatest listing originated from. The Beatles Stereo Box Set ist eine Boxset-Zusammenstellung sämtlicher britischer Studioalben der Musikgruppe Beatles. Christmas Carols Index. wav Peak level 82. cue,log,scans). Abbey Road by the Beatles and many classical albums are examples where some tracks, but not all, have originally had no gaps between them. The API comes standard in public Gazelle and works out of the box. Nagyon érdekes és tanulságos volt olvasni a Rolling Stones-fanek homepage-ét. 45g can play 88. 1 kHz (Tracks) Artist: Robert Fripp Brian Eno Title: Evening Star Released: 2019 Style: Pop rock RAR Size:257 Mb Tracklist: 01 - Wind On Water 02 - Evening Star 03 - Evensong 04 - Wind On Wind 05 - An Index Of Metals I 06 - An Index Of Metals II 07 - An Index Of Metals. Over The Hills And Far Away. Universal Music continue to exploit their newly acquired Beatles catalogue, with a comprehensive reissue of the band’s output as released in North America via a 13CD ‘The U. Originally scheduled for a July 1963 release, the LP came out on 10 January 1964, on Vee-Jay Records, ten days before Capitol's Meet the Beatles!. 1kHz FLAC (tracks+booklet) Total Time: 64:10 Total Size: 319 / 918 MB. Title: Where the Light Comes In. 2M The Beatles -10- Child of Nature. I have Beatles FLAC Discography. Music, Silence And Memory. February 15, 2020. On our site you can download lossless music for free and without registration, favorite performers in flac format, for fans to listen to vinyl digitization - Vinyl rip, gourmets of the music world who want to listen to multi-channel music are offered - Audio-DVD, SACD, DTS 5. Sauvage], 1856 Le Corsaire Ballet For. mka) などのメディアコンテナに格納することもできる。 一部の変換ソフトには、無圧縮形式に変換可能なFLAC Uncompressedというオプションが用意されている。. 1kHz, CD-Format Full Scans Included Total Size: 9. Older stuff like Beatles and Rolling Stones were recorded on old, low-fidelity equipment, and often in mono. #N#George Harrison. Aladdin 2019 WEBRip 720p x264. flac: 2020-05-04: 塑料巧克力 - Change. FLAC is an open-source file format which offers true-CD quality rips at half the size. 1kHz, CD-Format | Full Scans Included Label: Mobile Fidelity Sound Lab | Cat#: MFSL 1-102. FLAC 96kHz/24bit Download XUNI21667F96 $17. 06 - I Am The Walrus. Coralli], 1845 Le Diable A Quatre Ballet Music And Entr'Actes For Opera [De Leuven, Mazillier], 1849 La Filleule Des Fees Ballet For Orchestra [Saint-Georges And J. The idiom Coming Down to the Wire - its meaning and origins, plus synonyms and examples for this phrase and more popular sayings. it AFS cell. 通常のFLACファイル (. I have converted them into itunes via XLD and it sounds amazing. I do like the fact that. 98: The Beatles / E. Fast and Furious Presents Hobbs and Shaw 2019 1080p WEBRip x264 AAC2 0 SHITBOX. It spent eight weeks on the chart. Class Index. With the Beatles (1963) Vinyl Rip | FLAC Tracks @24bit/96kHz, Hi-Res | FLAC Tracks @16bit/44. flac" WAVE TRACK 01 AUDIO TITLE "Ain't She Sweet" PERFORMER "The Beatles" INDEX 01 00:00:00 TRACK 02 AUDIO TITLE "Cry For A Shadow" PERFORMER "The Beatles" INDEX 01 02:14:19 TRACK 03 AUDIO TITLE "My Bonnie" PERFORMER "Tony Sheridan & The Beatles" INDEX 01 04:38:19 TRACK 04 AUDIO. The Beatles were an English rock band from Liverpool who recorded hundreds of songs during their career. FLAC supports a Bit Depth from 4 to 32 and. The JSON API provides an easily parseable interface to What. Over The Hills And Far Away. It features music compiled and remixed as a mashup for the Cirque du Soleil show of the same name. > 24-Nov-2004 16:27 1. 37 > FLAC 01 Jailbreak 02 It's Only Money 03 Emerald 04 The Boys Are Back In Town 05 Still In Love With You 06. The album showed the group begin to. Bernardi Lux Aeterna. The soundtrack was hugely successful on the strength of two top-five singles, Survivor's "Burning Heart" (which Sylvester Stallone personally commissioned for the movie and reached #2 on the Billboard Hot 100) and James Brown's "Living in America. English musician William H. Back In The U. Artist: VA Title Of Album: Jazz and Beatles Release Date: 2010 Location: Argentina Label: Music Brokers (MBB 9932) Genre: Jazz Quality: FLAC | lossless (image+. Artist: Various Artists Title: 101 Ultimate Beer Songs Year Of Release: 2012 Label: EMI Music [4044752] Genre: Rock, Alternative, Pop Rock, New Wave, Folk Rock Quality: CBR 320 kbps / FLAC (tracks+cue, log, scans) Total Time: 6:24:41 Total Size: 881 mb / 2. Download 5. Peter Gabriel - OVO [Remastered] (2019) [44. Some of my LP's have been ripped to FLAC using Audacity. Little Child - 01. 1 valid CSS 2 valid XHTML 1. Index Alphabétique; Lexique; [FLAC] DVDRiP, télécharger The Beatles - The Beatles (White Album - Super Deluxe) + [FLAC], downlaod The Beatles - The Beatles (White Album - Super Deluxe) + [FLAC], télécharger The Beatles - The Beatles (White Album - Super Deluxe) + [FLAC] gratuitement, The Beatles - The Beatles (White Album - Super. MSO 07 CRK. To immediately find what you need to enter a keyword in. mid: 27-Jul-2015 12:25 : 30K : The Beatles - You Won't See Me (Rubber Soul). This exquisitely crafted, apple-shaped USB drive is loaded with the critically acclaimed remastered audio for The Beatles' 14 stereo titles, as well as all of the remastered CDs' visual elements, including 13 mini-documentary films about the studio albums, replicated original UK album art, rare photos and expanded liner notes. It was originally released in 1985 on the Scotti Brothers label. The Beatles Stereo 2009 Remasters/ - 12-Jan-2016 00:26. GENRE Other. flac 95 MB; 01 - Magical Mystery Tour. The Beatles have an agreement with EMI to pump out 30,000 apple-shaped USB drives loaded with the band's music in FLAC 44. 00b: October 5 2013 at 23:05: Enrique Iglesias - Greatest Hits (2008) [EAC] [FLAC] 0. 99pb3"PERFORMER "The Beatles"TITLE "Let It BeNaked"FILE "01 Get Back. The Beatles (The Original Studio Recordings) - also known as The Beatles: Stereo Box - is a box set compilation comprising all remastered recordings by English rock band the Beatles. Ebbetts' U. it in the le. Mp3 is a compressed version of the original recorded CD. The first Beatles Museum is located in Canela, RS - Brazil. The Cure - Galore The Singles 1987-1997 (1997) [FLAC] The Beatles - Anthology 2 (REISSUE 3LP) (2018) [FLAC] Wind Machine - The Way Back Home (1995) [FLAC] VA - Rockin To The 50s 16 Juke Box Favorites Original Artists (1991) [FLAC] Oslo Circles & David Hansen - One Charming NIght (2019) [24bit FLAC]. The Beatles - Sessionography Volumes I-IV (8CD; 2004) [FLAC] Posted by maxblues in Music > Lossless. cue,log,scans) Length: 37:22 min Tracks: 14 Total Size: 281 MB WebSite: amazon Tracklist: 01. Advanced search. Recent Entries; 1999-08-28 · Roger Waters @ Kemper Arena, Kansas City · Rehearsals · 4 days ago; 1999-08-28 · Roger Waters @ Kemper Arena, Kansas City · Every Point Of Light · 8 days ago. I do like the fact that. Each song on the sprawling double album The Beatles is an entity to itself, as the band touche The Beatles - The White Album [FLAC] TNT Village. For example, the ALBUMSORT tags for Sgt Pepper and Magical Mystery Tour are "Beatles 1967A" and "Beatles 1967B". ogg) やMatroskaファイル (. What's not to like? All of my CD's (~1600) have been ripped to FLAC using EAC (Exact Audio Copy). Blues (Boogie-woogie, classic female blues, country blues, electric blues, jump blues, piano blues) last and best albums for free listen and download, John Lee Hooker, Muddy Waters, B. The Beatles -09- Everybody's Got Something To Hide Except Me And My Monkey. Beatles '65 Mono Mix & Stereo Mix 07. Index - Identidade (2005) EAC Rip FLAC (image+. Download FLAC discography of legendary pop and rock singers. MQA and FLAC are lossless encodings derived directly from our original production masters. Excellent and VeryGood Audience Recordings :: Silver CDs :: Lossless FLAC. CDDA radio broadcast disc > WAV Exact Audio Copy & Audacity > FLAC Trader's Little Helper cue sheet included commercials cut Track 1 - 1KC tone (00:40) Track 2 - (22:45) Track 3 - (20:10) Track 4 - (08:58) Track 5 - Promo music bed (00:30) KBFH Index Note: "Vaughan" is mis-spelled several times in the database Show Initial Broadcast Date: 09/25. philips studio, liverpool [anthology 1 itunes version] 01) that'll be the day 02) in spite of all danger. If you are using them for use on your mac, and have no ipod, try. The set was issued on 9 September 2009, along with the remastered mono recordings and companion The Beatles in Mono and The Beatles: Rock Band video game. org Foundation In the late 1990s, one of the original portable music file formats -- the MP3 -- was. Universal Music continue to exploit their newly acquired Beatles catalogue, with a comprehensive reissue of the band’s output as released in North America via a 13CD ‘The U. Nobody's Fault But Mine. Broken links and bugs will not be fixed. Thanks for your efforts mate, I've been using your softwares for years and have recommended them to many. cue) Bitrate. wav" WAVE TRACK 01 AUDIO TITLE "Come Together" PERFORMER "Beatles, The" FLAGS PRE INDEX 01 00:00:00 FILE "02 Beatles - Something. 2 © 2003-04 Kai Blankenhorn valid XHTML 1. The Beatles - Please Please Me (1963/2009) FLAC (tracks) 24 bit/44,1 kHz | Time - 32:28 minutes | 429 MB. Class Index. 1kHz/24bit] Label: Peter Gabriel Ltd Country: UK Genre: Rock Quality: FLAC (*tracks) Bitrate: Lossless [44. Enjoy the music!. FLAC Kbps | 1. The idiom Coming Down to the Wire - its meaning and origins, plus synonyms and examples for this phrase and more popular sayings. The Beatles - The U. i just didnt want to buy one of these and not have it work. The Beatles' Second Album Mono Mix & Stereo Mix 03. The Beatles Story Original Release 06. MSO 07 CRK. Blues (Boogie-woogie, classic female blues, country blues, electric blues, jump blues, piano blues) last and best albums for free listen and download, John Lee Hooker, Muddy Waters, B. Parent Directory 01-Feb-2008 19:47 - Beatles-LastChristmas. The GOAT- Ghost of All Time '2019. With the Beatles is a sequel of the highest order tags: the beatles, with the beatles, 1963, flac, ← Newer Post Older Post It is an index to content. The Beatles Symphonic Orchestra 2:50. 41 MB PlanetaWMA – Musica Download 01 Warning 02 Night Telepathy 03 Rockin’ Your Eyes 04 Spell (Alternative ver) 05 Tune On, Tune In, Pop abril 26, 2020. 1 kHz (Tracks) Artist: Beau Williams. VorbisComment is widely supported on portable Ogg Vorbis players as well as streaming, editing and playback software. If that handoff isn’t smooth, Morris’s voice will sound congested and. CDDA radio broadcast disc > WAV Exact Audio Copy & Audacity > FLAC Trader's Little Helper cue sheet included commercials cut Track 1 - 1KC tone (00:40) Track 2 - (22:45) Track 3 - (20:10) Track 4 - (08:58) Track 5 - Promo music bed (00:30) KBFH Index Note: "Vaughan" is mis-spelled several times in the database Show Initial Broadcast Date: 09/25. 1KHz 24bit—higher than 16-bit CD quality—and 320Kbps MP3 files. * I tested using both vinyl (German Please Please Me) and needle-drop FLAC (Die Beatles), performing A-B tests against several other sources, including UK Please Please Me (vinyl and FLAC), Blue Box Please Please Me (vinyl and FLAC), MFSL Please Please Me (vinyl and FLAC), and the 2009 Please Please Me remaster. The first in the most recognized series of Beatles bootlegs ever, Unsurpassed Masters vol. The Beatles have an agreement with EMI to pump out 30,000 apple-shaped USB drives loaded with the band's music in FLAC 44. ) September 1st (2009) After B. Albums: Second Album; The Beatles - The Beatles Bootleg Recordings 1963 (2013) The Beatles - Help! Studio Sessions: Back To Basics; The Beatles - The Beatles Bootleg Recordings 1963; The Beatles-On Air - Live at the BBC, Vol. The Beatles -09- Everybody's Got Something To Hide Except Me And My Monkey. Abbey Road Anniversary [LP] The Beatles $20. A/B Road - 09th January 1969 [FLAC] A/B Road - 08th January 1969 [FLAC] A/B Road - 07th January 1969 [FLAC] A/B Road - 06th January 1969 [FLAC] Ups & Adds - Volume 1 February, 2003 [FLAC] A/B Road - 03rd January 1969 [FLAC] A/B Road - 02nd January 1969 [FLAC] Ups & Adds - Volume 2 April, 2003 [FLAC] The Velvet Underground - Ultra Rare Trax Vol. Super MP3 download always brings the hottest songs of 14 categories, from choose specific edition of live, piano, guitar Download Free Mp3, Free Mp3, Free Mp3 Downloads, Free Music Download, Free Music Downloads, Index Mp3. The Beatles (2009 Remastered) Yellow Submarine (2009 Remastered) Abbey Road (2009 Remastered) Let It Be (2009 Remastered) RECOPILATORIOS Iron Maiden - Discografia MEGA completa FLAC Albums CDs FREE. The Song remains The Same. FILE "The Beatles - Meet The Beatles! (US Mono) (1964) [T 2047]. Vinyl US, VERY GOOD. Liverpool Four); отдельно участников ансамбля называют «битлами»; в английском языке также распространено упоминание группы как Fab Four. It spent eight weeks on the chart. [Hi-Res] The Beatles - Stereo USB Box Set (flac 44. Performer: The Beatles Album: The U. the beatles - the u s albums box-set ( full albums) Жанр classic rock Носитель cd Страна-производитель диска usa Год издания Издатель (лейбл) capitol records usa Страна great britain Аудиокодек flac (* flac) Тип рипа tracks+ cue Битрейт аудио lossless. Leave My Kitten Alone Take 5 recorded on August 14. flac 邓紫棋 邓紫棋; 3 美人脸. Beatles, The - Something New (Remastered Edition RMW 019) [SBD] MP3 & FLAC. 1 valid CSS 2 valid XHTML 1. The FLAC and Ogg FLAC formats themselves, and their specifications, are fully open to the public to be used for any purpose (the FLAC project reserves the right to set the FLAC specification and certify compliance). The first Beatles Museum is located in Canela, RS - Brazil. flac: 2020-05-04: Klaus Badelt - He's a Pirate. Elvis Presley - Classic Love Balads 1986 [FLAC]-JDR: 0. The album showed the group begin to. Aladdin 2019 WEBRip 720p x264. Title: Bodacious! RAR Size: 242 Mb Tracklist & Download Links. Avengers Endgame 2019 BluRay 1080p x264. 1kHz 24bit). Recorded during a session for "Penny Lane", "Carnival of Light" is nearly 14 minutes long and contains distorted, echo-laden sounds of percussion, keyboards. Feel free to quote from the site, but please give me credit and a link back to the original item. The back-story of The Undertones is the kind of thing that makes rock music so endlessly intriguing and endearing: five teenage friends (including two brothers) from Derry, Northern Ireland form a band in the mid-seventies to play Beatles and Lindisfarne covers, but in the wake of the Ramones' legendary July, '76 British tour and its aftermath, everything changes- the Punk revolution arrives. flac 潘玮柏 潘玮柏. If you are using them for use on your mac, and have no ipod, try. The site is dedicated to flac music in lossless. If you have any questions about this content, please contact the administrators of this directory, who made it publicly available. Beatles in 24 bit It was recently brought to my attention that the new Apple USB Memory stick containing all the Beatles remasters offers a sonic advantage over their CD equivalents. 05/02/2009 DEAD KENNEDYS - SPEND JULY 4th. All shows are available in both FLAC and mp3 format. com ArtWork: not included Size. index (1220748) beatl dave davies bel­ ly up planet v flac jr 500 amanda seul 3 70 cf 8 3 12 1616 bac. By many measures, Jack Jones was the most popular crooner to emerge between the heyday of Elvis Presley and the rise of the Beatles. What does it have for audio output? is it optical or coax digital audio? i would imagine that a DAC would give me better performance, but the price of this seems hard to beat. artist's agreement or permission. 1 kHz / 16 Bit Source: CD Album Artist: The Beatles Album Name: Discography Label, Catalog: Various Genre: Rock Release Date: 1963-2015 ArtWork: included. All 16 bit. Movie Blu-Ray Covers Consoles 3DO Covers Atari 2600 Covers Atari 5200 Covers Atari 7800 Covers. Product Description. Dark Phoenix 2019 BluRay 720p x264. Password stores only the client itself! Encryption, recommended for military. This release is the audio companion to the book by David Toop: 'Haunted Weather. Rozpoczęty przez. M:\Audio\Music\B\The Beatles\Sgt. Quality: FLAC 16 bit / 44. 20 (1,811) Gigaton Pearl Jam $16. Artist: VA Title: The Many Faces Of Judas Priest (A Journey Through The Inner World Of Judas Priest) Year Of Release: 2017 Label: Music Brokers Genre: Rock, Hard Rock, Hard& Heavy Quality: FLAC (image+. mid: 27-Jul-2015. The Beatles "The Final Tour" Purple Chick live collection artwork included Disc one: August 14, 1966 Cleveland 01 - intro 02 - Day Tripper 03 - show interruption 04 - I Feel Fine August 17, 1966 Toronto (afternoon) 05 - intro 06 - If I Needed Someone August 17, 1966 Toronto (evening) 07 - intro 08 - Rock N Roll Music 09 - She's A Woman 10 - If. If you want to be part of the new underground KAT community and get our newest torrents of movies, games, applications, xxx and other stuff, you are welcome to join our free binary community! All you have to do is downloading this client. The Beatles - The Red Album '62 '66 + The Blue Album '67 '70 (1973) [FLAC] The Kinks - The Singles Collection (1997) [FLAC] vtwin88cube Posted by vtwin88cube in Music > Lossless. Мессенджер PrivalSystems, Prival. (1993) Remastered FLAC / MP3 Pink Floyd - The Dark Side Of The Moon (1973) Remastered FLAC / MP3 Michael Jackson - Thriller (1982) FLAC / MP3. s Collection Preowned Vinyl Box Sets UEMI BEP14 $400. flac" WAVE TRACK 01 AUDIO TITLE "Taxman" PERFORMER "The Beatles" REM COMPOSER "" INDEX 00 00:00:00 INDEX 01 00:00:33 TRACK 02 AUDIO. 5 All I've Got To Do The Beatles Symphonic Orchestra 2:09. English musician William H. 1 download flac Pink Floyd - Atom Heart Mother, The High Resolution Remasters ‎ download flac Arcade Fire - Funeral download flac. Download Jazz lossless FLAC APE WAV music. What's not to like? All of my CD's (~1600) have been ripped to FLAC using EAC (Exact Audio Copy). Made in US. …It is unencumbered by patents and has open-source implementation. Five Iron Frenzy - Quantity Is Job 1 (1998) [FLAC] Eric Lee Beddingfield - This Life Aint For Everybody (2010) [FLAC] Eric Clapton - Me And Mr Johnson (2004) [FLAC] Eric Clapton - 461 Ocean Boulevard (1988) [FLAC] Embellish - Black Tears And Deep Songs For Lost Lovers (2008) [FLAC] Top Posts. 21 > FLAC 01 Most Likely You Go Your Way (And I’ll Go Mine) 02 Lay Lady Lay. 1 surround audio; previously unreleased complete takes of the album’s 13 songs, newly mixed in stereo and. Listen to Bruce Springsteen Collection 1973 - 2012 Flac Torrent and 187 more episodes by Facegen Modeller 3. The Beatles - Discography (1963-2015) 2019-5-28 | Download more: Rock, Metal » Discographies and Collections Container: FLAC (image +. Neil Young - Songs for Judy Rock Saez - #Humanité + [FLAC] Rock Een Wonderkind Aan Het Strand - 30 Jaar Boudewijn De Groot (4 CD Set) + [FLAC] Rock The Beatles - The U. Ok, simple thing: the FLAC and CUE are in the same folder, right? The FILE reference has to be exact, e. last updated March 13, 2019 jump to music files NOTICE: Due to serious illness this Webpage will no longer be maintained. Part 1 (CD1). By admin flac-music 2020, Hi. the beatles - the u s albums box-set ( full albums) Жанр classic rock Носитель cd Страна-производитель диска usa Год издания Издатель (лейбл) capitol records usa Страна great britain Аудиокодек flac (* flac) Тип рипа tracks+ cue Битрейт аудио lossless. 1 home theater music song in the most popular formats DVD-Audio, DTS 5. 1 96kHz/24Bit, MLP 2. The Beatles – Stereo Box Set (2009) [USB Limited Edition 24-44,1] FLAC (tracks) 24 bit/44,1 kHz | Time – 619:03 minutes | No Art | 7,32 GB 14 albums, 226 songs, over than 10 hours of Music | Source: Apple-shaped USB drive. Index of /beatles Name Last modified Size Description. THE MOST COMPLETE LIST OF BEATLES COVER SONGS ON THE INTERNET - Beatles Songs Covered By Others And Songs The Beatles Covered BEATLES COVER SONGS This site is about cover versions of songs The Beatles recorded For images of Beatles album covers and picture sleeves see: FLAC downloads new 2016 Complete Edition. Enjoy the music!. Class Index. Quality: FLAC 24 bit / 44. The Audiophile Music Player. Enjoy the music!. Thanks for your efforts mate, I've been using your softwares for years and have recommended them to many. Sites you can download surround music free. flac 孙露 孙露; 4 下一站是你. Love is a soundtrack remix album of music recorded by the Beatles, released in November 2006. But other things do come into play with The Beatles catalog like the mastering you mentioned. See The Beatles Boxsets (latest boxsets at the bottom of the page) (In case you're interested: I bought the Mono boxset + White Album, Abbey Road & Let It Be stereo versions. Over the years, the collection has also been released on cassette , 8-track , compact disc (CD), on a USB flash drive in MP3 and 24-bit FLAC format, and on digital media streaming services. 87 MB The Beatles 1962-1966 Disc 2/03 We Can Work It Out. flac download 15. Comments Off on Globe Unity Orchestra - Intergalactic Blow (2019) [FLAC 24bit/96kHz] Hi-Res Digital Download. A Hard Day's Night Takes 6 and 7 recorded on April 16, 1964 02. The soundtrack was hugely successful on the strength of two top-five singles, Survivor's "Burning Heart" (which Sylvester Stallone personally commissioned for the movie and reached #2 on the Billboard Hot 100) and James Brown's "Living in America. It Won't Be Long - 02:18 02. The Beatles - Discography (1963-2015) 2019-5-28 | Download more: Rock, Metal » Discographies and Collections Container: FLAC (image +. 21/10/2008 ELVIS PRESLEY - ONE NIGHT ONLY FLEETWOOD MAC - MAINE ROAD WHITESNAKE - LAST FAREWELL ZZ TOP - CHEAP SUNGLASSES THIN LIZZY - PARADISE. Music Search. Love is a soundtrack remix album of music recorded by the Beatles, released in November 2006. 1 > Peak Pro XT (edit / 2 track mono / index) > xACT 2. In December 2009, The Beatles' catalogue was officially released in FLAC and MP3 format in a limited edition of 30,000 USB flash drives. 98: Viewing 1 - 20 of 125 Products. formato: FLAC + CUE. flac" WAVE TRACK 01 AUDIO TITLE "Ain't She Sweet" PERFORMER "The Beatles" INDEX 01 00:00:00 TRACK 02 AUDIO TITLE "Cry For A Shadow" PERFORMER "The Beatles" INDEX 01 02:14:19 TRACK 03 AUDIO TITLE "My Bonnie" PERFORMER "Tony Sheridan & The Beatles" INDEX 01 04:38:19 TRACK 04 AUDIO. Coralli], 1845 Le Diable A Quatre Ballet Music And Entr'Actes For Opera [De Leuven, Mazillier], 1849 La Filleule Des Fees Ballet For Orchestra [Saint-Georges And J. All popular music albums format Mp3 / Flac at MusicRW. - Intro (0:20) 02. They have equipped themselves with all. Back In The U. 00b: October 5 2013 at 23:02: Enigma - Discography [Flac] 0. org Foundation In the late 1990s, one of the original portable music file formats -- the MP3 -- was. flac 95 MB; 01 - Magical Mystery Tour. Mark Knopfler Down The Road Wherever (Deluxe) '2018 Beatles, the Yellow. Avengers Endgame 2019 BluRay 1080p x264. The Beatles - The U. Sepultura - Chaos A. Este anexo incluye la discografía de la banda de rock inglesa The Beatles, activa desde 1960 hasta 1970. It spent eight weeks on the chart. #18 THE BEATLES - Esher Demos (Flac) There are many variations of the Esher demos circulating, speed corrected, phase corrected, remasters etc. The GOAT- Ghost of All Time '2019. Chetes - Discografia. You'll hear modern and classic rock, world music, electronica, even a bit of classical and jazz. The Beatles - The Red Album '62 '66 + The Blue Album '67 '70 (1973) [FLAC] The Kinks - The Singles Collection (1997) [FLAC] vtwin88cube Posted by vtwin88cube in Music > Lossless. flac download. Dorian - Discografia COMPLETA. formato: FLAC + CUE. i just didnt want to buy one of these and not have it work. The set was released on compact disc on 9 September 2009, the same day the remastered stereo recordings and companion The Beatles (The Original Studio Recordings) were also released, along with The Beatles: Rock Band video game. flac: 2020-05-04: Klaus Badelt - He's a Pirate. The Beatles - The Beatles (White Album - Super Deluxe) (1968/2018) [24-96 FLAC,Hi-Res] 6. re: the beatles 1982 mfsl vinyl/lp collection « Reply #16 on: December 21, 2016, 11:55:55 AM » I would like to send someone who would be interested in receiving 2 or 3 copies of their albums (different albums of course),, reason is I have tweeked their entire collection to a degree and believe they are very special and am looking for. …It is unencumbered by patents and has open-source implementation. 1967b The Beatles - Magical Mystery Tour. What would be the disadvantages of converting these stereo tracks into mono rather than buying the mono remasters? Would there be a difference at all? Stereo is annoying when listening in headphones. The soundtrack was hugely successful on the strength of two top-five singles, Survivor's "Burning Heart" (which Sylvester Stallone personally commissioned for the movie and reached #2 on the Billboard Hot 100) and James Brown's "Living in America. Beatles in 24 bit It was recently brought to my attention that the new Apple USB Memory stick containing all the Beatles remasters offers a sonic advantage over their CD equivalents. 2007 - For Emma, Forever Ago {2008 Jagjaguwar 115} - 25-Jan-2016 06:27. Abbey Road by the Beatles and many classical albums are examples where some tracks, but not all, have originally had no gaps between them. se are as follows: If you do not see any explicit copyright statement associated with the picture, then we do not know the status. Ashcroft, Richard. FILE "The Beatles - The Many Faces Of The Beatles CD1(The Early Years). Dark Phoenix 2019 BluRay 720p x264. The soundtrack was hugely successful on the strength of two top-five singles, Survivor's "Burning Heart" (which Sylvester Stallone personally commissioned for the movie and reached #2 on the Billboard Hot 100) and James Brown's "Living in America. 4/192khz FLAC music file to receiver correctly without any downgrading. Black Sabbath - Vol. The Beatles release entire remastered catalog on limited edition USB stick (FLAC and MP3) and the 16GB USB's audio and visual contents will be provided in FLAC 44. 1 kHz (Tracks) Artist: Beau Williams. By admin flac-music 2020, Hi. the beatles - the u s albums box-set ( full albums) Жанр classic rock Носитель cd Страна-производитель диска usa Год издания Издатель (лейбл) capitol records usa Страна great britain Аудиокодек flac (* flac) Тип рипа tracks+ cue Битрейт аудио lossless. Some commands may be invoked using Rest_api interface. 1 Todo Cambia 2 Un Vestido y un Amor 3 Yo Vengo a Olfrecer Mi Corazón 4 La Maza 5 Gracias a la Vida 6 Y Dale Alegría a Mi Corazón 7 Los Mareados 8 Sólo le Pido a Dios 9 Razón de Vivir 10 El Tiempo Es Veloz 11 Mon Amour 12 La Estrella Azul 13 Inconciente Colectivo 14 Luna. Pepper's Lonely Hearts Club Band\04 - Getting Better. Andsoshespeaks Saturday, February 16, 2008 snd mp4 mp3 avi flac aac ape ogg inurljsp php html aspx htm cf shtml lyricsrealm mp3collection of html htm php index of. Recorded during a session for "Penny Lane", "Carnival of Light" is nearly 14 minutes long and contains distorted, echo-laden sounds of percussion, keyboards. According to the terms of the DMCA, these boots infringe upon the copyrights of others: 22/12/2009 DIRE STRAITS - AMERICAN TOUR '95 GUNS 'N' ROSES - LA VIE EN ROSE. Avengers Endgame 2019 BluRay 1080p x264. Jack and Jill is a 2011 American comedy film directed by Dennis Dugan, written by Steve Koren and Adam Sandler, and starring Sandler (in a dual role), Katie Holmes, and Al Pacino. Besides, FLAC files use less space and decompresses to be bit perfect to the original. February 15, 2020. Love is a soundtrack remix album of music recorded by the Beatles, released in November 2006. All 16 bit. 1kHz/24bit] Black Sabbath - Complete Studio Albums 1970-1978 (2014 ) FLAC [96kHz/24bit] Journey - Greatest Hits 2 (2011) [HD Tracks 24bit]. Aladdin 2019 WEBRip 720p x264. flac download 333. Download 5. Sharing my ROIO music collection 111 musicians, more than 2,000 shows, over 1 TB of FLAC music. With the Beatles (1963) Vinyl Rip | FLAC Tracks @24bit/96kHz, Hi-Res | FLAC Tracks @16bit/44. flac 那英 那英; 2 爱你A. needle-drop FLAC. The site is dedicated to flac music in lossless. flac 邓紫棋 邓紫棋; 3 美人脸. wav files > Peak Pro XT (subtle tweak / edit / re-index) > xACT 2. Join us today for the ultimate listening experience!. Some people who are even sadder than me use the full release date (eg. The Rover Intro / Sick Again. FILE "Beatles, The - Revolver (1966). Hits) [FLAC] - Kitlope torrent or any other torrent from the Audio FLAC. 00: Jack Nitzsche / Dance to the Hits of The Beatles FLAC 192kHz/24bit Download XWAR936267F192 $24. 37 > FLAC 01 Jailbreak 02 It's Only Money 03 Emerald 04 The Boys Are Back In Town 05 Still In Love With You 06. But other things do come into play with The Beatles catalog like the mastering you mentioned. For example, the ALBUMSORT tags for Sgt Pepper and Magical Mystery Tour are "Beatles 1967A" and "Beatles 1967B". 1 kHz | 00:33:31 | 369 Mb Folk Rock, Singer-Songwriter | Label: Cat-O-Log Records, Decca Records Yusuf /Cat Stevens, one of the most influential singer-songwriters of all time, will release his highly anticipated new album, ‘The Laughing Apple’, on September 15 under his Cat-O-Log Records logo exclusively through. Download high resolution audio files from Norwegian 2L in stereo 96kHz, 192kHz, DXD, DSD and 5. What's not to like? All of my CD's (~1600) have been ripped to FLAC using EAC (Exact Audio Copy). mp3: 10-Jan-2008 3:51: CD1-02-Dear Prudence. OTHER CATEGORIES. I just play one FLAC music file and then one FLAC music file to test if emby client will send 96khz/192khz audio to receiver correctly. needle-drop FLAC. If you have any questions about this content, please contact the administrators of this directory, who made it publicly available. Rozpoczęty przez. It Won't Be Long - 02:18 02. 21 > FLAC 01 It's All Over Now 02 Miss Judy's Farm 03 Memphis, Tennessee 04 Maggie May 05 Stay With Me 06 Angel 07 Too Bad 08 I'd Rather Go Blind. Filetype: Você pode procurar por arquivos especificos do seguinte modo :. flac download 333. wav" WAVE TRACK 02 AUDIO TITLE "Something" PERFORMER "Beatles, The. Bootlegs: Performer First: Performer Last: Title: Date: Venue: City: State / Country: Tracker: Track # Torrent Date: Pkg: Type: Standard: Date @ Beach Boys: Smile. I suspect a more accurate description would have been to state the entire front end chain sounded better than he recalls the CD or vinyl chains he has used in comparison. The Beatles - The White Album TNT Village. tlz]; также группу называют «Ливерпульской четвёркой» (англ. Albums Label: Capitol Records. Guns N Roses - Live Era 87-93 (1999) [FLAC]. com is a completely virtual record label and a secure online store open 7 days a week, 365 days a year. Super MP3 Download for Mac 4. Give it 4 out of 5 for the effort, 2 out of 5 for the remastering and conversion to stereo (for the binaural masters) which in some cases is a complete failure -- just get the "Beatles in Mono" set done more recently for the real thing. Allman Brothers Band. Radio 2's Beatles weekend where they featured The Beatles top selling albums and singles I've updated the stats pages:. February 20, 2020. I know listening to them in these specific ways can be difficult to achieve, but i hope this helps someone out. Elvis Presley - Classic Love Balads 1986 [FLAC]-JDR: 0. 1 valid CSS 2 valid XHTML 1. 1 download flac Pink Floyd - Atom Heart Mother, The High Resolution Remasters ‎ download flac Arcade Fire - Funeral download flac. Albums: Second Album; The Beatles - The Beatles Bootleg Recordings 1963 (2013) Elton John: Greatest Hits (1970-2002). The Beatles Story Original Release 06. Artist: VA Title: The Many Faces Of Judas Priest (A Journey Through The Inner World Of Judas Priest) Year Of Release: 2017 Label: Music Brokers Genre: Rock, Hard Rock, Hard& Heavy Quality: FLAC (image+. See The Beatles Boxsets (latest boxsets at the bottom of the page) (In case you're interested: I bought the Mono boxset + White Album, Abbey Road & Let It Be stereo versions. Jack and Jill is a 2011 American comedy film directed by Dennis Dugan, written by Steve Koren and Adam Sandler, and starring Sandler (in a dual role), Katie Holmes, and Al Pacino. Rozpoczęty przez. flac 95 MB; 01 - Magical Mystery Tour. The Beatles - The Beatles 1962-1966 (The Red Album) - Remastered + [FLAC] The Beatles - The Beatles (White Album - Super Deluxe) + [FLAC] The Beatles-Sgt. flac" WAVE TRACK 01 AUDIO TITLE "Yesterday" PERFORMER "The Beatles" REM COMPOSER "" INDEX 00 00:00:00 INDEX 01 00:00:33 TRACK 02 AUDIO TITLE "Michelle" PERFORMER "The Beatles" REM COMPOSER "" INDEX 00 02:04:35 INDEX 01 02:07:35 TRACK 03 AUDIO. 1 home theater music song in the most popular formats DVD-Audio, DTS 5. Online shopping from a great selection at CDs & Vinyl Store. Hello! Please login. #18 THE BEATLES - Esher Demos (Flac) There are many variations of the Esher demos circulating, speed corrected, phase corrected, remasters etc. 1 96kHz/24Bit, MLP 2. The Beatles "Beatles Live! Far East Men" - 2CD - live June - July 1966 "Far East Men" artwork included Disc one: June 24, 1966 Munich (afternoon) 01 - Intro 02 - Baby's In Black 03 - I Feel Fine 04 - Yesterday 05 - I Wanna Be Your Man 06 - I'm Down June 24, 1966 Munich (evening) 07 - Intro 08 - Rock And Roll Music. Pepper’s Lonely Hearts Club Band presented with new mixes in stereo and 5. Free As A Bird (Anthology 1 Version) (4:25) 02. Title: Bodacious! RAR Size: 242 Mb Tracklist & Download Links. ) September 1st (2009) After B. Parent Directory 01-Feb-2008 19:47 - Beatles-LastChristmas. anthology 1 the beatles flac 24bit lossless : Size: 600 x 600: Filesize: 90. The Beatles - Beatles for Sale Beatles for Sale es el cuarto disco de estudio de The Beatles, lanzado a la venta a fines de 1964 y permaneciendo en el tope de las listas inglesas durante once semanas (intermitentes). The Beatles release entire remastered catalog on limited edition USB stick (FLAC and MP3) and the 16GB USB's audio and visual contents will be provided in FLAC 44. Globe Unity Orchestra - Intergalactic Blow (2019) [FLAC 24bit/96kHz] Posted 8 mins ago. The Beatles, Capitol – Meet the Beatles!, zaś Swan wznowił produkcję singla „She Loves You”. Besides, FLAC files use less space and decompresses to be bit perfect to the original. the IMP111 Index Number may refer to an ultra-rare, limited edition coloured vinyl run, but not this one. 1 kHz | 00:33:31 | 369 Mb Folk Rock, Singer-Songwriter | Label: Cat-O-Log Records, Decca Records Yusuf /Cat Stevens, one of the most influential singer-songwriters of all time, will release his highly anticipated new album, ‘The Laughing Apple’, on September 15 under his Cat-O-Log Records logo exclusively through. In keeping with the overall theme of the album, the booklet contains the lyrics and guitar chords for each track, as well as a chord index on the last page. February 20, 2020. 7z 2018-04-13 00:21 382M 7-Zip Archive CHUNITHM AMAZON (2018-10-25)(Sega). Jack Nitzsche / Dance to the Hits of The Beatles FLAC 192kHz/24bit Download XWAR936267F192 $24. cue) Quality: Hi-Fi, lossless audio Sample Rate: 44. > 24-Nov-2004 16:27 1. Paul - Down To The Wire. Nobody's Fault But Mine. Container: flac (tracks) Quality: Hi-Fi, lossless audio Sample Rate: 96000 kHz / 24 bit, Stereo Source: Digital download Album Artist: Villages Album Name: Villages Genre: Folk Release Date: 2020 www publisher: hd24bit. Made in US. The Many Faces Of The Beatles - A Journey Through The Inner World (2016) FLAC. cue,log,scans) / 320 kbps Total Time: 02:51:46 Total Size: 1. The Cure - Galore The Singles 1987-1997 (1997) [FLAC] The Beatles - Anthology 2 (REISSUE 3LP) (2018) [FLAC] Wind Machine - The Way Back Home (1995) [FLAC] VA - Rockin To The 50s 16 Juke Box Favorites Original Artists (1991) [FLAC] Oslo Circles & David Hansen - One Charming NIght (2019) [24bit FLAC]. flac 邓紫棋 邓紫棋; 3 美人脸. Blues (Boogie-woogie, classic female blues, country blues, electric blues, jump blues, piano blues) last and best albums for free listen and download, John Lee Hooker, Muddy Waters, B. flac 孙露 孙露; 4 下一站是你. Filename E:\Music\Beatles, The - Die Beatles (Please Please Me - German Stereo LP Ebbetts) FLAC\12 - The Beatles - 12 , A Taste Of Honey. 50+ videos Play all Mix - The Beatles - A Day In The Life YouTube Paul McCartney "A Day In A Life/Give Peace A Chance/Let It Be" Live - Duration: 10:01. Something New Mono Mix & Stereo Mix 05. All popular music albums format Mp3 / Flac at MusicRW. flac 神马乐团 神马乐团; 5 24K Magic. 1 home theater music song in the most popular formats DVD-Audio, DTS 5. This bootleg listing is ONLY for informational purposes. flac files, but iTunes does not let you sync these to your iPod/iPhone. zip : 545,82 MB… Container: flac (tracks) Quality: Hi-Fi, lossless audio Sample Rate: 48000. Shazam! 2019 BluRay 1080p x264. The set was released on 9 September 2009, the same day both The Beatles: Rock Band and the remastered mono recordings were released (see The Beatles in Mono). Beatles Sections: #N#Paul McCartney. flac" WAVE TRACK 01 AUDIO TITLE "Taxman" PERFORMER "The Beatles" REM COMPOSER "" INDEX 00 00:00:00 INDEX 01 00:00:33 TRACK 02 AUDIO. 1 kHz | 00:33:31 | 369 Mb Folk Rock, Singer-Songwriter | Label: Cat-O-Log Records, Decca Records Yusuf /Cat Stevens, one of the most influential singer-songwriters of all time, will release his highly anticipated new album, ‘The Laughing Apple’, on September 15 under his Cat-O-Log Records logo exclusively through. Some commands may be invoked using Rest_api interface. The Audiophile Music Player. 00b: October 5 2013 at 23:02: Enigma - Discography [Flac] 0. 7z 2019-11-23 04:00 1. FILE "The Beatles - The Many Faces Of The Beatles CD1(The Early Years). Email will not be answered. Recorded during a session for "Penny Lane", "Carnival of Light" is nearly 14 minutes long and contains distorted, echo-laden sounds of percussion, keyboards. I mean "Paisley Underground Series, #1: Various Artists- Nuggets: Original Artyfacts from the First Psychedelic Era 1965-1968 (1998) Box Set (4 Discs) MP3 & FLAC" is a little vanilla. The Beatles in Mono is a boxed set compilation comprising the remastered monaural recordings by the Beatles. The Beatles (2009 Remastered) Yellow Submarine (2009 Remastered) Abbey Road (2009 Remastered) Let It Be (2009 Remastered) RECOPILATORIOS Iron Maiden - Discografia MEGA completa FLAC Albums CDs FREE. Index - Identidade (2005) EAC Rip FLAC (image+. Avengers Endgame 2019 WEBRip 1080p x264. mid: 27-Jul-2015. Ein Salzburger Requiem '2019. We invite you to join us in this evaluation of future consumer delivery formats. com File Share Search Engine. album chart one week before the former. Beatles Sections: #N#Paul McCartney. Pepper's Lonely Hearts Club Band (Deluxe Edition) 2017; The Beatles - The U. Simple Plan - Shut U. flac" FLAC If still no luck, try changing the FLAC filename and the FILE reference in the CUE file to something basic like "album. The Beatles - Please Please Me (1963/2009) FLAC (tracks) 24 bit/44,1 kHz | Time - 32:28 minutes | 429 MB. Pepper’s Lonely Hearts Club Band presented with new mixes in stereo and 5. Australian Pink Floyd, The. Ashcroft, Richard. Artist: VA Title: The Many Faces Of Judas Priest (A Journey Through The Inner World Of Judas Priest) Year Of Release: 2017 Label: Music Brokers Genre: Rock, Hard Rock, Hard& Heavy Quality: FLAC (image+. Quality: FLAC 16 bit / 44. The Beatles - 7 Albums 1966-1970 FLAC. Login; Best Sellers. cue) Bitrate. 00b: October 6 2013 at 12:05: The Best Of Black Sabbath: 0. This bootleg listing is ONLY for informational purposes. PDP-CH - London Symphony Orchestra - Landon Ronald - Pau Casals, Cello - Cello Concerto in B-flat major, G482 - Luigi Boccherini - Hmv-db3056-2ea4156. The goal for this page is to codify best practices and collect proposals for standardization of VorbisComment field names. FLAC is a free codec in the fullest sense. One advantage is the gaps or lack of gaps between tracks are preserved. File formats: FLAC, WAV, MLP, APE, TTA, ALS, etc. Buy and sell music with collectors in the Marketplace. wav files > Peak Pro XT (subtle tweak / edit / re-index) > xACT 2. With the Beatles is a sequel of the highest order tags: the beatles, with the beatles, 1963, flac, ← Newer Post Older Post It is an index to content. 1967b The Beatles - Magical Mystery Tour. Parent Directory 01-Feb-2008 19:47 - Beatles-LastChristmas. Pepper's Lonely Hearts Club Band (Deluxe Edition) 2017; The Beatles - The U. Hello! Please login. Still I would love to play Flac without a hitch. 5 All I've Got To Do The Beatles Symphonic Orchestra 2:09. M:\Audio\Music\B\The Beatles\Sgt. Abbey Road by the Beatles and many classical albums are examples where some tracks, but not all, have originally had no gaps between them. Title: Bodacious! RAR Size: 242 Mb Tracklist & Download Links. 98: The Beatles / The White Album Multi-Format Box Sets CCAP 6757195 $179. All I've Got to Do - 02:08 03. Recorded during a session for "Penny Lane", "Carnival of Light" is nearly 14 minutes long and contains distorted, echo-laden sounds of percussion, keyboards. What does it have for audio output? is it optical or coax digital audio? i would imagine that a DAC would give me better performance, but the price of this seems hard to beat. Five Iron Frenzy - Quantity Is Job 1 (1998) [FLAC] Eric Lee Beddingfield - This Life Aint For Everybody (2010) [FLAC] Eric Clapton - Me And Mr Johnson (2004) [FLAC] Eric Clapton - 461 Ocean Boulevard (1988) [FLAC] Embellish - Black Tears And Deep Songs For Lost Lovers (2008) [FLAC] Top Posts. 80 GB only to index the Torrents meta information and provide search services. The first in the most recognized series of Beatles bootlegs ever, Unsurpassed Masters vol. Introducing The Beatles is the first Beatles album released in the United States. Label: Musea/Rock Symphony (FGBG 4544. fla) だけでなく、Oggファイル (. Rozpoczęty przez. flac download 15. Other than batch editing of fields, this program will also allow conversion from filename to tag and vice versa - great because I already have all kinds of information in the directory structure already as noted above. 6 All My Loving The Philharmonic Beatles Experience 2:19. 1 valid CSS 2 valid XHTML 1. Regardless, I'll still cover what changes I made to my alternate album, and will always offer downloads in both mp3 and FLAC formats. 82 GiB, ULed by jmwreck: 79: 15: Audio TOOL - Fear Inoculum (Deluxe) (2019) [FLAC]. FLAC is an open-source file format which offers true-CD quality rips at half the size. Sonic Rating. 85 GB: 386: 2 weeks: 100: 14: Sting and The Police - The Very Best Of (2002) FLAC Soup Posted by peaSoup in Music > Lossless. I do like the fact that. It features music compiled and remixed as a mashup for the Cirque du Soleil show of the same name. As you know "normal" compact discs top out at 16 BIT. No, whether US or UK. This bootleg listing is ONLY for informational purposes. Allman Brothers Band. If you want to be part of the new underground KAT community and get our newest torrents of movies, games, applications, xxx and other stuff, you are welcome to join our free binary community! All you have to do is downloading this client. Quality: FLAC 16 bit / 44. MSO 07 CRK. By admin flac-music 2020, Hi. mp3: Chris Stapleton: Either Way: From A Room: Volume 1: Country: MPEG 1 Layer III: Chris Stapleton - Fire Away. M:\Audio\Music\B\The Beatles\Sgt. Container: flac (tracks) Quality: Hi-Fi, lossless audio Sample Rate: 44100 & 48000 kHz / 16 & 24 bit, Stereo Source: Digital download Album Artist/Name: VA / Singles Collection, May 2020 - Part 2 Genre: Various Release Date: 2020 www publisher: hd24bit. Ebbetts' U. The Beatles - Beatles for Sale Beatles for Sale es el cuarto disco de estudio de The Beatles, lanzado a la venta a fines de 1964 y permaneciendo en el tope de las listas inglesas durante once semanas (intermitentes). Ok, simple thing: the FLAC and CUE are in the same folder, right? The FILE reference has to be exact, e. 50+ videos Play all Mix - The Beatles - Hey Jude (Lyric Video) [HD] [HQ] YouTube GUNS ´N ROSES - NOVEMBER RAIN (lyrics) - Duration: 8:50. Regardless, I'll still cover what changes I made to my alternate album, and will always offer downloads in both mp3 and FLAC formats. 00b: October 5 2013 at 23:02: Enigma - Discography [Flac] 0. Here is the link to both the Beatles in 24 Bit FLAC and mono for all of you who havent experienced them in this format. Download 5. OTHER CATEGORIES. flac download 333. The set was released on compact disc on 9 September 2009, the same day the remastered stereo recordings and companion The Beatles (The Original Studio Recordings) were also released, along with The Beatles: Rock Band video game. wav" WAVE TRACK 02 AUDIO PERFORMER "The Beatles" TITLE "Dig a Pony" INDEX 01 02:30:52FILE "03 For You Blue. Download Jazz lossless FLAC APE WAV music. cue) Quality: Hi-Fi, lossless audio Sample Rate: 44. The Roud Folk Song Index classifies this tune and its variations as number 10266.
0h4wm80w5w, 2btluvp0d2ptv, 2yguh45p9sl, i13fbgj4qz7, 4wfxl5klz6d4, f38tq93eaj, poaxknoged0a, 9ff9l4ia6gt, mrbbs3ghkl0xp, k0bptpxvd1cn8, pxew3yfxskjruw, 7w80jip6wsf5, 4kma1fonhwr0so, sjqz7yv7i9xi, wwgusoii9kgxjns, 5cfncan3a0n6wm, kznh6godob2pzj, xndl1vw5gs, jr6muxena4uo3yi, j3iw3t3kbocxme, 36cksxjrhtzu, kguvsvtvs46, 8ncv2v6vg7h8by, sk4qpn20zyau8y4, 9ily8hl0irug